Udemy Wordpress Theme Development with Redux Framework 2020

Category: Tutorial

Tag: Database/SQL


Posted on 2020-05-16, by nokia241186.

Description


4bb36f291f2ea8f9735af7f40f7f57ff.jpg

Udemy - Wordpress Theme Development with Redux Framework 2020
WEBRip | English | MP4 | 1280 x 720 | AVC ~1116 kbps | 30 fps
AAC | 128 Kbps | 48.0 KHz | 2 channels | Subs: English (.vtt) | ~6 hours | 3.98 GB
Genre: eLearning Video / Web Development, Wordpress, Programming
Create your own custom WordPress theme with Redux, for yourself, your clients and for the world!



What you'll learn

Wordpress Theme development
How to use the Redux Framework
How to integrate TGM plugin activator
How to use Advacned Custom Fields

Requirements
This is not for beginners. You need to know how to read/understand basic HTML, CSS and PHP code to follow the course
You need to know at least what is WordPress and what it is for

Description

Every day businesses, professionals and entrepreneurs realize how profitable is to have a website. WordPress is a powerful tool for creating dynamic. Using the Redux you will be able to creat a powerful optional panel.

As a web developer who wants to create your own custom themes, you can use WordPress to start up your own website, or help your clients with their own projects. Or maybe you're daring to dream your highest dream and want to sell your own custom theme on marketplaces such as Theme Forest.

Learn How to Build Your Own WordPress Theme

* Master the Redux Framework

* Learn how to use the Wordpress loop

* Work with taxonomies to creat a gallery

Master the creation of a WordPress Theme

If you already develop websites, you will see how fast it is to create with WordPress. You will also understand why it has created a passionate community of followers around it.

There are several benefits for those who know how to build a custom WordPress theme. In addition to knowing how to solve problems more easily, learning how to create a theme from scratch literally puts you in control of your layout. The only limit will be your own creativity.

Who this course is for:
Web designers/programmers who want to create a theme for themselves, clients or for selling
Students who want to learn how WordPress works

General
Complete name : 4. Creating Custom Fields.mp4
Format : MPEG-4
Format profile : Base Media
Codec ID : isom (isom/iso2/avc1/mp41)
File size : 84.4 MiB
Duration : 9 min 24 s
Overall bit rate : 1 253 kb/s
Writing application : Lavf58.12.100

Video
ID : 1
Format : AVC
Format/Info : Advanced Video Codec
Format profile :
Format settings : CABAC / 4 Ref Frames
Format settings, CABAC : Yes
Format settings, RefFrames : 4 frames
Codec ID : avc1
Codec ID/Info : Advanced Video Coding
Duration : 9 min 24 s
Bit rate : 1 116 kb/s
Nominal bit rate : 3 000 kb/s
Width : 1 280 pixels
Height : 720 pixels
Display aspect ratio : 16:9
Frame rate mode : Constant
Frame rate : 30.000 FPS
Color space : YUV
Chroma subsampling : 4:2:0
Bit depth : 8 bits
Scan type : Progressive
Bits/(Pixel*Frame) : 0.040
Stream size : 75.2 MiB (89%)
Writing library : x264 core 148
Encoding settings : cabac=1 / ref=3 / deblock=1:-1:-1 / analyse=0x1:0x111 / me=umh / subme=6 / psy=1 / psy_rd=1.00:0.15 / mixed_ref=1 / me_range=16 / chroma_me=1 / trellis=1 / 8x8dct=0 / cqm=0 / deadzone=21,11 / fast_pskip=1 / chroma_qp_offset=-3 / threads=22 / lookahead_threads=3 / sliced_threads=0 / nr=0 / decimate=1 / interlaced=0 / bluray_compat=0 / constrained_intra=0 / bframes=3 / b_pyramid=2 / b_adapt=1 / b_bias=0 / direct=1 / weightb=1 / open_gop=0 / weightp=2 / keyint=60 / keyint_min=6 / scenecut=0 / intra_refresh=0 / rc_lookahead=60 / rc=cbr / mbtree=1 / bitrate=3000 / ratetol=1.0 / qcomp=0.60 / qpmin=0 / qpmax=69 / qpstep=4 / vbv_maxrate=3000 / vbv_bufsize=6000 / nal_hrd=none / filler=0 / ip_ratio=1.40 / aq=1:1.00

Audio
ID : 2
Format : AAC
Format/Info : Advanced Audio Codec
Format profile : LC
Codec ID : mp4a-40-2
Duration : 9 min 24 s
Bit rate mode : Constant
Bit rate : 128 kb/s
Channel(s) : 2 channels
Channel positions : Front: L R
Sampling rate : 48.0 kHz
Frame rate : 46.875 FPS (1024 SPF)
Compression mode : Lossy
Stream size : 8.62 MiB (10%)
Default : Yes
Alternate group : 1

Screenshots

a08614c13ca58e25ed86075cc61c2ccb.jpg


ea1f603944601e175c306a01a1102129.jpg
DOWNLOAD
(Buy premium account for maximum speed and resuming ability)





Sponsored High Speed Downloads
6250 dl's @ 3729 KB/s
Download Now [Full Version]
7427 dl's @ 3755 KB/s
Download Link 1 - Fast Download
5376 dl's @ 2239 KB/s
Download Mirror - Direct Download



Search More...
Udemy Wordpress Theme Development with Redux Framework 2020

Search free ebooks in ebookee.com!


Links
Download this book

No active download links here?
Please check the description for download links if any or do a search to find alternative books.


Related Books

  1. Ebooks list page : 43625
  2. 2021-08-29Wordpress Theme Development With Redux Framework 2019
  3. 2019-07-14Wordpress Theme Development With Redux Framework 2019
  4. 2019-05-20Wordpress Theme Development with Redux Framework 2019
  5. 2019-05-06Wordpress Theme Development with Redux Framework 2019
  6. 2019-05-06Wordpress Theme Development with Redux Framework 2019
  7. 2019-02-23Udemy - WordPress Theme Development with Bootstrap - Removed
  8. 2019-02-07Udemy - WordPress Theme Development with Bootstrap - Removed
  9. 2021-08-03Udemy - WordPress Theme Development Course with Bootstrap 5 (2021)
  10. 2019-05-31Udemy - Advanced WordPress Theme Development with Bootstrap 4 - Removed
  11. 2021-07-11UDEMY LEARN MODERN REACT WITH REDUX LATEST 2020 INC VUE JS 2-BiFiSO
  12. 2021-07-01UDEMY LEARN MODERN REACT WITH REDUX LATEST 2020 INC VUE JS 2-BiFiSO - Removed
  13. 2021-06-29Wordpress Plugin Development With Vue Js (2020)
  14. 2021-06-24UDEMY LEARN MODERN REACT WITH REDUX LATEST 2020 INC VUE JS 2-BiFiSO - Removed
  15. 2021-06-23Udemy LEARN MODERN REACT WITH REDUX LATEST 2020 INC VUE JS 2-BiFiSO - Removed
  16. 2021-06-21UDEMY LEARN MODERN REACT WITH REDUX LATEST 2020 INC VUE JS 2-BiFiSO - Removed
  17. 2021-04-09Udemy - Wordpress Plugin Development with Angular.js (2021)
  18. 2021-03-21Udemy - Wordpress Plugin Development with JQuery (2021)
  19. 2021-02-21Wordpress Plugin Development With Vue Js (2020)
  20. 2020-11-18WordPress Plugin Development with Vue.js (2020)

Comments

No comments for "Udemy Wordpress Theme Development with Redux Framework 2020".


    Add Your Comments
    1. Download links and password may be in the description section, read description carefully!
    2. Do a search to find mirrors if no download links or dead links.
    Back to Top